quảng cáo

We Are The Night - We Are The Night

Xem Phim We Are The Night 2012

We Are The Night

Status:
Full
Đạo diễn:
Dennis Gansel,
Diễn viên:
Karoline Herfurth,Nina Hoss,Jennifer Ulrich,,
Thể Loại:
Kinh Dị - Ma,HD,

Sản xuất:
Đang cập nhật,
Quốc gia:
Mỹ - Châu Âu,
Thời lượng:
90 Phút

Năm phát hành: 2012

Lượt xem:
5217

Có: User Online Bạn Đang Xem Phim Này

Xem phim

Thông Tin Phim
Trailer
Nội Dung Phim We Are The Night:

Phimhdd.com giới thiệu:Bộ phim "We Are The Night" là một câu chuyện về một nhóm nữ ma cà rồng đầy khêu gợi tự đặt ra các quy tắc của riêng mình và để lại một dấu vết tàn nhẫn bằng máu.Bộ phim We are the Night tập trung vào Lena 20 tuổi (Karoline Herfurth) là một tên trộm vặt. Trong một đêm trên đường đi làm, cô đi qua một câu lạc bộ dưới mặt đất và gặp Louise 250 tuổi  (Nina Hoss). Louise là một cô gái quyến rũ, không chỉ là chủ sở hữu của câu lạc bộ, nhưng cũng là lãnh đạo của một bộ ba ma nữ cà rồng khác, trong đó hai thành viên khác là Nora (Anna Fischer) và Charolette (Jennifer Ulrich). Louise yêu Lena và cắn cô nàng trong đêm đầu tiên họ ở cùng nhau. Sau khi bị cắn, Lena phát hiện ra lời nguyền và sự sung sướng của cuộc sống mới bất diệt của mình. Nhưng cũng nhanh chóng phát hiện ra rằng cô khát máu vô tận và thèm giết những cô gái mới đến. Khi ủy viên cảnh sát Berlin Tom Serner (Max Riemelt) bắt đầu điều tra những người phụ nữ, chỉ còn là vấn đề thời gian trước khi ngày của họ đến và các sự việc vượt khỏi kiểm soát.(phimhdd.com.website xem phim đỉnh nhất).

Trailer phim: We Are The Night, Điểm phim Star Movies, Phim, Lich phim Starmovies, phim Starmovies, Lich phim


Trailer phim: We Are The Night, Điểm phim Star Movies, Phim, Lich phim Starmovies, phim Starmovies, Lich phim

Trailer phim: We Are The Night, Điểm phim Star Movies, Phim, Lich phim Starmovies, phim Starmovies, Lich phim

Trailer phim: We Are The Night, Điểm phim Star Movies, Phim, Lich phim Starmovies, phim Starmovies, Lich phim


Xem Phim Online http://phimhdd.com

Xem Phim Online http://phimhdd.com
Code:
Ratings: 6.2/10 from 2,838 users   
http://www.imdb.com/title/tt1692504/

General
Unique ID                      : 215161192541082512465387619284979183174 (0xA1DE89D1DCBC8FD48F946DFDC3EA6E46)
Complete name                  : D:We.Are.The.Night.2010.720p.BluRay.AC3.x264-TRBHD.DUAL.TR.GER_kunngoc_hdvn.mkv
Format                         : Matroska
Format version                 : Version 2
File size                      : 5.30 GiB
Duration                       : 1h 39mn
Overall bit rate               : 7 613 Kbps
Encoded date                   : UTC 2011-09-08 20:35:27
Writing application            : mkvmerge v5.2.1 ('A Far Off Place') built on Jan  2 2012 23:21:10
Writing library                : libebml v1.2.3 + libmatroska v1.3.0

Video
ID                             : 1
Format                         : AVC
Format/Info                    : Advanced Video Codec
Format profile                 : High@L4.1
Format settings, CABAC         : Yes
Format settings, ReFrames      : 12 frames
Muxing mode                    : Header stripping
Codec ID                       : V_MPEG4/ISO/AVC
Duration                       : 1h 39mn
Bit rate                       : 6 721 Kbps
Width                          : 1 280 pixels
Height                         : 544 pixels
Display aspect ratio           : 2.35:1
Frame rate mode                : Constant
Frame rate                     : 24.000 fps
Color space                    : YUV
Chroma subsampling             : 4:2:0
Bit depth                      : 8 bits
Scan type                      : Progressive
Bits/(Pixel*Frame)             : 0.402
Stream size                    : 4.57 GiB (86%)
Title                          : We Are the Night
Writing library                : x264 core 114 r1924 08d04a4
Encoding settings              : cabac=1 / ref=12 / deblock=1:-3:-3 / analyse=0x3:0x133 / me=umh / subme=9 / psy=1 / psy_rd=1.02:0.04 / mixed_ref=1 / me_range=30 / chroma_me=1 / trellis=2 / 8x8dct=1 / cqm=0 / deadzone=21,11 / fast_pskip=1 / chroma_qp_offset=-3 / threads=6 / sliced_threads=0 / nr=0 / decimate=1 / interlaced=0 / constrained_intra=0 / bframes=8 / b_pyramid=2 / b_adapt=2 / b_bias=0 / direct=3 / weightb=1 / open_gop=0 / weightp=2 / keyint=250 / keyint_min=24 / scenecut=40 / intra_refresh=0 / rc=2pass / mbtree=0 / bitrate=6721 / ratetol=1.0 / qcomp=0.70 / qpmin=10 / qpmax=51 / qpstep=4 / cplxblur=20.0 / qblur=0.5 / ip_ratio=1.40 / pb_ratio=1.30 / aq=1:0.70
Language                       : German
Default                        : No
Forced                         : No

Audio #1
ID                             : 2
Format                         : AC-3
Format/Info                    : Audio Coding 3
Mode extension                 : CM (complete main)
Format settings, Endianness    : Big
Muxing mode                    : Header stripping
Codec ID                       : A_AC3
Duration                       : 1h 39mn
Bit rate mode                  : Constant
Bit rate                       : 256 Kbps
Channel(s)                     : 2 channels
Channel positions              : Front: L R
Sampling rate                  : 48.0 KHz
Bit depth                      : 16 bits
Compression mode               : Lossy
Stream size                    : 183 MiB (3%)
Title                          : www.indirsinema.com
Language                       : Turkish
Default                        : Yes
Forced                         : No

Audio #2
ID                             : 3
Format                         : AC-3
Format/Info                    : Audio Coding 3
Mode extension                 : CM (complete main)
Format settings, Endianness    : Big
Muxing mode                    : Header stripping
Codec ID                       : A_AC3
Duration                       : 1h 39mn
Bit rate mode                  : Constant
Bit rate                       : 640 Kbps
Channel(s)                     : 6 channels
Channel positions              : Front: L C R, Side: L R, LFE
Sampling rate                  : 48.0 KHz
Bit depth                      : 16 bits
Compression mode               : Lossy
Stream size                    : 456 MiB (8%)
Title                          : We Are the Night
Language                       : German
Default                        : No
Forced                         : No

Text
ID                             : 4
Format                         : UTF-8
Codec ID                       : S_TEXT/UTF8
Codec ID/Info                  : UTF-8 Plain Text
Title                          : Romanian @ Filelist.ro
Language                       : Romanian
Default                        : Yes
Forced                         : No
The vampires Louise, Charlotte and Nora arrive in Berlin after attacking the passengers and crew of an airplane in a flight to Paris. The leader Louise has been looking for centuries for her missed love and Charlotte misses her daughter that she saw in 1923 for the last time. Meanwhile, the smalltime pickpocket Lena steals a Russian mobster and is chased by Detective Tom. When Lena goes to a nightclub, the lesbian Louise believes that Lena is the love of her life and transforms her into a vampire. Lena initially feels lost with the transformation, but sooner she joins the trio of vampires in their nightlife. When the pack of vampires attacks a group of criminals, the police department investigates the case and hunts the women without knowing the risks that they are taking. Meanwhile the lonely Tom and the Lena fall in love with each other; but the unrequited love of Lena for Louise jeopardizes the couple. Written by Claudio Carvalho, Rio de Janeiro, Brazil.
Xem Phim Online http://phimhdd.com
Xem Phim Online http://phimhdd.com
Link:http://phimhdd.com/phim/we-are-the-night-we-are-the-night-2012/m4614.html

Quang cao